WK綜合論壇, WK综合论坛

查看:11352 回復:2 發表於 2017-11-20 14:10:00
累計簽到︰1997 天
連續簽到︰1 天
發表於 2017-11-16 14:14:17 | 顯示全部樓層 |閱讀模式
VIP精品區,資源無限好賺金任務區,輕松賺金幣
加入VIP,享受高級特權宣傳賺金又升級,超級棒

惡魔的耳語 Devils.Whisper, 2017.[MKV/2.96GB] [複製鏈接]

影視分享
分類: 電影
題材: 劇情 驚悚 恐怖 
地區: 美國 
語言: 英语 
格式: MKV 
年份: 2017
資源: BT资源
1.jpg
& Q7 A. d. ~1 M! ^; i" C% V0 X# [$ D4 G5 j8 _5 \
◎译  名 恶魔的耳语
, @3 t2 {  U, T◎片  名 Devil's Whisper
8 d" B% M* N5 [0 I0 ^! `+ Q◎年  代 2017
# p  p9 M4 ^# E! f◎产  地 美国
5 P! ~5 `6 W7 q0 J0 u& x; [$ U" d◎类  别 剧情/惊悚/恐怖
7 G: ?1 Y, d& h! h1 f- M◎语  言 英语
/ n4 w$ S" d* @◎上映日期 2017-06-10(美国)
7 y3 d0 H4 d! W3 [+ x% m. P◎IMDb评分  6.8/10 from 89 users- @  T  E- k* o
◎IMDb链接  http://www.imdb.com/title/tt5868924/
3 g+ @/ Z" M6 a/ f◎片  长 85分钟0 Z2 B% @& O1 M1 W, a$ T" N: n% ~
◎导  演 Adam Ripp8 C5 u5 v* ~" Q6 [! b# E
◎主  演 Violkys Bustamante
! D& g4 Q2 a. D" ^4 y9 v      Alison Fernandez
7 d. X/ K. P+ q# X0 n" r      马科斯·A.费拉斯 Marcos A. Ferraez( ^7 a8 }* f+ e. s5 _$ V
0 y  l* @; U3 o+ Z% {* S
◎简  介/ t" q4 q7 e) z& Z

( E7 ]1 C8 _8 W: b3 ~' Y' K4 L) L  15 year-old Alejandro Duran, who comes from a religious Latino family, aspires to one day be a Catholic priest. But when Alex discovers a mysterious box he unwittingly unleashes a demonic spirit bent on possessing him. Alex must find a way to defeat this ancient demon, which has been tormenting children since the dawn of man, before it destroys him and everyone he loves. On the surface Devil's Whisper is a supernatural horror film about demonic possession but at its core it's a psychological thriller about repressed memories, childhood trauma and the cycle of abuse.# B1 t! X) y1 Y5 T+ X

/ g) X0 j; s) F$ }. X8 Z7 a

0 t3 w) l* P. o" u( r/ k/ D, hCODE:, G) C4 \( ]" @$ Y! p

) V; f3 L1 q4 I* v% C) |& u3 b
# a9 N" d! u7 B+ F, t; T7 H

+ C) Z% V! V, N% BVideo
5 r) c) o7 q* J* d  u* mID                                       : 1. L) K" T1 d3 O- V* i
Format                                   : AVC  S+ `5 `2 c1 b$ S' t3 C' e
Format/Info                              : Advanced Video Codec4 X0 x$ [$ [9 l: w0 V4 G
Format profile                           : [email protected]
1 u3 L. y0 F! P# pFormat settings                          : CABAC / 5 Ref Frames1 V( g# j- Y1 q# f
Format settings, CABAC                   : Yes# w$ E. M9 P* ?
Format settings, ReFrames                : 5 frames5 N- _/ p( G& C/ X5 E1 E
Codec ID                                 : V_MPEG4/ISO/AVC
: g, y: x7 t0 `- E+ FDuration                                 : 1 h 25 min
8 q3 N  E9 k4 N& s: MBit rate                                 : 4 476 kb/s& {2 H8 l$ x( P, {6 x- |
Width                                    : 1 920 pixels, \- X4 J6 M8 a! l( K7 @' _
Height                                   : 796 pixels7 K% u7 f* d$ C! \9 n  h: t
Display aspect ratio                     : 2.40:1+ I, q3 d8 O/ }& K
Frame rate mode                          : Constant
! v$ `: j7 ?) }- _' t# f( c" DFrame rate                               : 23.976 (24000/1001) FPS3 j7 p9 V, Q) B* s' \
Color space                              : YUV
  C8 J- B6 @1 @$ m4 DChroma subsampling                       : 4:2:0! p4 I3 K( c( c' t
Bit depth                                : 8 bits
0 f, I! g; V/ O3 W0 M& q% B/ fScan type                                : Progressive
. J8 T/ l$ ?0 {# SBits/(Pixel*Frame)                       : 0.1223 d* y" Y. P1 @
Stream size                              : 2.67 GiB (90%)
- f. D$ _/ M1 }4 ]Title                                    : Devils.Whisper.2017.1080p.WEB-DL.DD5.1.H264-FGT
3 l- E2 b& l% sLanguage                                 : English
' ~2 R' Z3 _# _7 _( \5 [. r1 s) NDefault                                  : Yes
. D$ k  P7 ~5 j) y6 S7 WForced                                   : No1 J$ S7 ~# H1 T* ~( D$ Z- G
Color range                              : Limited
$ S$ f' x% H7 [; a9 ]& {Color primaries                          : BT.7097 ]8 p: S1 ]0 V8 v. X
Transfer characteristics                 : BT.7097 B& q8 W. u4 D8 A
Matrix coefficients                      : BT.709
# p( W7 f  R7 F' x0 M3 U( |) c
+ Q' h' m) X2 B0 ]Audio
+ N! w0 b& v+ e  AID                                       : 2
  H% M# _6 K' |4 |9 AFormat                                   : AC-38 c6 ]/ w% ^$ a& R1 `4 [% L
Format/Info                              : Audio Coding 3
5 k( P7 J7 c2 O6 y+ zCodec ID                                 : A_AC3
# T7 Q7 m, g$ j: s+ E/ U0 P/ KDuration                                 : 1 h 25 min
2 Y2 I+ r$ }0 ~& oBit rate mode                            : Constant- O+ X7 s& E+ L6 R/ X
Bit rate                                 : 384 kb/s  M+ V4 i" J& e$ y& U$ A; H
Channel(s)                               : 6 channels
3 D0 m1 H) t2 |6 UChannel positions                        : Front: L C R, Side: L R, LFE
: Z3 H% g( Y7 r0 N0 |$ [" [; Z4 |Sampling rate                            : 48.0 kHz% u' s+ V! y! V" v
Frame rate                               : 31.250 FPS (1536 SPF)5 K: N( _9 q6 C: O6 @& h: b
Bit depth                                : 16 bits* v5 B9 m& u1 L' F
Compression mode                         : Lossy) I8 H* Q# y  c% N0 |' w9 @
Delay relative to video                  : -42 ms
/ q; d# K1 K! n; h  GStream size                              : 235 MiB (8%)2 ]+ V  d) K9 K
Title                                    : Devils.Whisper.2017.1080p.WEB-DL.DD5.1.H264-FGT; T& a9 ^: D+ O4 X3 j
Language                                 : English# w8 }2 N  M7 y: x
Service kind                             : Complete Main/ I6 `/ p9 |' \, ^( R5 b
Default                                  : Yes
5 I( M' C  E6 v+ i0 O  mForced                                   : No
" F6 t' H) `$ ~! |/ g- G( o* A/ d5 V/ ?! V+ c
Text% n8 H9 z6 t+ S3 \* w" y
ID                                       : 3
' V: x/ m; g4 Y# P/ ~Format                                   : UTF-8
, g4 N. w9 w9 y' j& ^2 {Codec ID                                 : S_TEXT/UTF88 L  A5 @/ C; ]5 ~
Codec ID/Info                            : UTF-8 Plain Text) i2 A* x! A8 @5 U+ l
Language                                 : English- F+ k* B( n" c# \
Default                                  : Yes
3 L3 Q8 ^' l/ h. n, g( DForced                                   : No
7 K) T7 i2 k5 u- {3 Q- e+ h% w0 f6 O0 ^/ z" x7 [' M- S
Menu
% t) k# V( V' [00:00:00.000                             : en:18 y' V5 {8 o) s
00:06:13.665                             : en:2/ q; n- Z0 k! f5 w
00:09:43.416                             : en:3& G2 B( d4 [# t2 b% I, Z% Y9 X
00:14:34.874                             : en:4
! ?9 Y! ~' V8 |3 t1 P+ q3 d8 a00:20:52.793                             : en:5: _+ O3 F# T* E) w/ u
00:26:15.699                             : en:6
/ ?% u; r: C2 X" B2 }5 }: ~00:30:24.239                             : en:7
! N  f  Y/ f0 N% f2 s00:35:45.810                             : en:8& ?6 }& G4 j4 K5 x# ^. P, P
00:40:56.453                             : en:95 t; M( v( _+ E* A; X
00:44:08.603                             : en:104 |) d4 M  j5 k7 [
00:50:31.235                             : en:111 p' S7 M6 G8 X
00:54:50.786                             : en:12" Z# ]9 K- q: v% L% S) L6 L" Z
00:58:05.605                             : en:13& M* X0 s8 K8 G, d) F
01:04:35.911                             : en:14
5 J' I( _; ]0 C$ I9 U0 f01:11:05.634                             : en:15% `9 n7 h0 g1 P. Z
01:14:49.107                             : en:16
: g3 u% F; {) B3 ]$ I- B. n6 t' {2 w: a- i1 ]4 R
' q6 [9 f$ y5 ]+ P$ p4 c4 ^/ u
9 K) O' F3 m, O- G: w

$ f9 H( }/ T& {. o  @! D8 q
: s8 u5 h9 w: p- C6 {& }$ q8 ^+ X( C. Y0 b# m5 m/ W- `) e, Z: o# A+ o

惡魔的耳語. MKV.torrent

59.77 KB, 下載次數: 807

尚未簽到

發表於 2017-11-18 14:58:29 | 顯示全部樓層
VIP精品區,資源無限好賺金任務區,輕松賺金幣
加入VIP,享受高級特權宣傳賺金又升級,超級棒
精妙絕倫的精品,感謝啊!期待你更多更好的創作哦!

尚未簽到

發表於 2017-11-20 14:10:00 | 顯示全部樓層
精妙絕倫的精品,感謝啊!期待你更多更好的創作哦!

回復樓主 親!! 現在是淩晨!妳失眠啦?餓啦?通宵加班?還是想WK啦?

 分享同時學會感恩,一句感謝的話語,就是最大的支持!  歡迎交流討論
您需要登錄後才可以回帖 登錄 | 立即注册

本版積分規則

c重要聲明:本論壇是以即時上載言論的方式運作,WK論壇對所有言論的真實性、立場及版權等,不負任何法律責任。而一切言論只代表發佈者個人意見,並非本網站之立場,讀者及用戶務必自行判斷內容之真實性。 由於本論壇受到「即時上載言論」運作方式所規限,故不能完全監察所有言論,若讀者及用戶發現有內容出現「真實性、立場及版權」等問題,請聯絡我們:[email protected]論壇有權刪除任何言論(刪除前或不會作事先警告及通知)| SiteMap[網站地圖]

發表新帖 返回頂部