WK綜合論壇, WK综合论坛

查看:102 回復:3 發表於 2020-5-23 23:02:54
本主題由 212love 於 2020-5-25 11:30 解除高亮
累計簽到︰2000 天
連續簽到︰1 天
發表於 2020-5-23 08:48:33 | 顯示全部樓層 |閱讀模式
VIP精品區,資源無限好賺金任務區,輕松賺金幣
加入VIP,享受高級特權宣傳賺金又升級,超級棒

寶劍與權杖 The.Warrior.Queen.Of.Jhansi., 2019.[MKV / 6.78G] [複製鏈接]

影視分享
分類: 電影
題材: 劇情 
地區: 英國 
語言: 英语 
格式: MKV 
年份: 2019
資源: BT资源
1.jpg
2 j8 y% t, z9 t" s- p
, V# }5 x' M/ {4 o2 m◎译  名 宝剑与权杖 / Swords and Scepters / Swords and Sceptres: The Rani of Jhansi
" i5 d/ D" N" P& b% G5 c- P◎片  名 The Warrior Queen of Jhansi0 N% Z9 y1 l1 o" v9 I& {
◎年  代 20190 i$ e6 R  C# u0 H
◎产  地 英国
4 j2 o+ g. k) c: `' R◎类  别 剧情6 V% @2 g- u6 W. X. D1 a
◎语  言 英语
7 u8 W- E7 J* ]7 E! z2 _◎上映日期 2019-03-10(温哥华女性电影节)
  W4 N7 Y5 P5 p; _& o  Q5 g◎IMDb评分 3.5/10 from 245 users1 P- F& ?4 b4 `$ ]
◎IMDb链接 https://www.imdb.com/title/tt6916348
- j+ Y9 d% _1 k- G- n& Y2 ?◎豆瓣评分 0/10 from 0 users: ?# ^+ C& b7 P2 j, M- s8 |; B9 ~
◎豆瓣链接 https://movie.douban.com/subject/27191803/
2 d0 L! d& c' m9 k+ ~- U" I: I◎片  长 103分钟0 |$ @8 B% J2 U: e. z9 H7 A" i
◎导  演 Swati Bhise* Z0 M. B, @8 X! q
◎编  剧 Devika Bhise / Swati Bhise / Olivia Emden
, O5 P6 d" V. q7 t& S7 h, g◎主  演 鲁伯特·艾弗雷特 Rupert Everett
6 [# ]4 O  P- H2 O- g2 _/ D      德里克·雅各比 Derek Jacobi# A, f, S, v& C& O6 S2 {
      乔迪·梅 Jodhi May" N1 Z# @' Y2 i2 u
      内森奈尔·帕克 Nathaniel Parker
, `: Y6 x; w6 i" s      德维卡·贝斯 Devika Bhise" \0 \1 l' C0 T+ _( v* @, ]" P3 A( {
      Ben Lamb
& q4 V1 X  n6 ^3 Q/ N: S: U
/ h( h( t/ u0 ^4 i
7 ?+ c3 }* ?0 y8 p3 y  ?. r◎标  签 印度 | 英国 | 2019年上海国际电影节 | 历史 | DerekJacobi | 剧情 | 2019SIFF | 首选% f0 s# Z: z% u7 c3 j

3 R1 o6 c& Y1 q: Z. E  V◎简  介$ z: X% W9 `' z) s# Z% |  V
4 j" c$ c. t' B4 U( ~
  鲁伯特·艾弗雷特、德里克·雅各比加盟[宝剑与权杖](Swords and Scepters,暂译)。主演德维卡·贝斯、乔迪·梅、内森奈尔·帕克等。印度导演斯瓦蒂·贝斯执导,故事聚焦印度“詹西女王”拉克希米巴伊1857年反抗英国东印度公司的起义行动。艾弗雷特、雅各比分饰休·罗斯爵爷、帕默斯顿勋爵。9 [# m" n5 m- i' W2 R$ N
Video
& g' E: l& C0 N1 V) ]% EID : 1
- {7 n* B6 m, A- K( e; k& n* z1 BFormat : AVC% L; \7 [- ]) m8 s
Format/Info : Advanced Video Codec0 L4 Q7 r- c$ c7 s! M' F
Format profile : [email protected]$ j/ m( x$ x) d7 x
Format settings : CABAC / 4 Ref Frames
1 l) Y, m8 h4 D" B7 m7 C7 c+ D) aFormat settings, CABAC : Yes# t: J7 T& Z3 G/ ^
Format settings, Reference frames : 4 frames  s$ x" H1 ?7 X. U' H$ ~; T5 I
Codec ID : V_MPEG4/ISO/AVC7 R; ]& \' v5 p' T( N
Duration : 1 h 42 min
! ?( E) Q. Z' W2 R! ^" O. y7 LBit rate mode : Constant
- F/ ?8 ~* Y* q5 @' [, X% ?Bit rate : 8 813 kb/s) ~/ p! `# x+ b( w6 C
Nominal bit rate : 10 000 kb/s; B- O3 |0 D0 E* O! y6 w
Width : 1 920 pixels  q6 k! G' {8 W0 [: v3 K1 c
Height : 800 pixels. ]; _# [0 N  B3 k0 j& ?; J
Display aspect ratio : 2.40:1) q/ h2 b, k9 V, ?) V
Frame rate mode : Constant, |1 I5 n, f; e9 E! k+ p5 t
Frame rate : 23.976 (24000/1001/189150) FPS
8 F4 t* w1 R; @+ ~# j1 pColor space : YUV% A2 i0 T6 i6 v
Chroma subsampling : 4:2:02 d) n2 z. A" c# B
Bit depth : 8 bits$ Y' M& ~5 m# o, R, x
Scan type : Progressive2 h. s4 o' _* w8 Q4 Q
Bits/(Pixel*Frame) : 0.2399 x4 [8 X9 M- a
Stream size : 6.32 GiB (93%)5 N0 j) D' x$ I6 `) J( m
Default : Yes# T- t( M. f$ @
Forced : No* G, E8 }7 P+ K
Color range : Limited
9 B5 U  z' ^# G+ V! Z6 }Color primaries : BT.709  {- @! Q. r3 C7 ^4 l
Transfer characteristics : BT.709
7 Q! K; ?( i; ^4 q  E/ l2 OMatrix coefficients : BT.709% e8 ~' D% \# k

/ \, e$ @  y( i! U- X6 J8 ?Audio
5 E: V: o2 r7 n0 _6 h# OID : 29 W& d  D$ u! f
Format : E-AC-3/ C& p7 g: ]* X: C. V
Format/Info : Enhanced AC-3
1 |1 W5 p; _# a1 A; N8 XCommercial name : Dolby Digital Plus& Y6 e, s. A! s- z
Codec ID : A_EAC34 O) Q* ]+ c- E5 T
Duration : 1 h 42 min
. Y) w, x. Z3 O  vBit rate mode : Constant
" m. r$ I* q) mBit rate : 640 kb/s! ~8 {) V9 l: t. i- X5 L
Channel(s) : 6 channels- b- L4 p, V# h; n3 H
Channel layout : L R C LFE Ls Rs2 G" H$ A. V( [( o2 l# j/ P
Sampling rate : 48.0 kHz
) p+ _( [* u1 y4 X. L* I- wFrame rate : 31.250 FPS (1536 SPF)# |# b/ B+ l0 f) O$ Q
Compression mode : Lossy7 m3 K6 W* L  ?7 U' X, y
Stream size : 470 MiB (7%)8 }! K6 l% V: L6 W( f- |6 B  i& G
Language : English0 [) K* e+ P' G. p  L% V: F
Service kind : Complete Main/ M0 k0 ?- ?# ^: r) i
Default : Yes8 {+ @  z# K8 M
Forced : No
4 z3 Z' Z+ G3 V& P( |4 n7 w4 \
5 _. K# J+ g+ yText #1* g9 H( K+ z8 t8 D
ID : 3  [4 u" ?8 P+ Z2 r* A; A3 m4 ~
Format : UTF-8
% H! y; [! H- ?3 J* M9 }4 [Codec ID : S_TEXT/UTF86 w& M) U) O, N1 n$ X
Codec ID/Info : UTF-8 Plain Text9 J8 @  d$ ]3 u, {1 W  O& h8 D
Duration : 1 h 35 min1 [6 R* n' H% K1 r* {2 i9 ~: T* d
Bit rate : 46 b/s6 s% X+ Q0 {! Q: W  ]& z  X( p. _# [
Count of elements : 1040
, ]9 C" c) h( c. KStream size : 33.0 KiB (0%)
- y$ }4 A. k0 M( j% }Language : English
  D/ L2 c5 _' d$ a' ODefault : No- A  R& O+ l+ b$ t+ M
Forced : No2 ~: I: Z/ L8 A; ?' i
2 k! B4 C% ?) q/ p- @- z
Text #2
) _8 c) e6 R, J6 RID : 4
: b0 _/ h. E5 \7 V. ]: D+ u* QFormat : UTF-88 \0 K& k) Y7 @; }: \% t
Codec ID : S_TEXT/UTF8$ m8 ~, u% Y; J
Codec ID/Info : UTF-8 Plain Text
1 H( ]8 v. ?) o  q7 vDuration : 1 h 35 min; h0 J" s7 j, b
Bit rate : 53 b/s
0 R( X+ m% O8 {- ECount of elements : 1259: t! b+ t" ~3 Q4 V" h- e  K' i6 @2 J
Stream size : 37.4 KiB (0%)
7 f' T, ]) m- gTitle : SDH1 j  D6 K# z8 s4 P
Language : English
8 t" c: A* r3 tDefault : No9 p5 m9 Z: r  s* s' X2 s: `( F
Forced : No
* ^& I& W1 @4 Y  j9 _2 ~; ^7 S

7 K- J+ ^( i1 x$ T: Y: R  T% w9 P* m0 B6 i# I7 D

寶劍與權杖. MKV.torrent

34.46 KB, 下載次數: 8

累計簽到︰2 天
連續簽到︰1 天
發表於 2020-5-23 09:46:01 | 顯示全部樓層
VIP精品區,資源無限好賺金任務區,輕松賺金幣
加入VIP,享受高級特權宣傳賺金又升級,超級棒
ddddddddddddddddddddddddddddddddddddd
累計簽到︰1243 天
連續簽到︰32 天
發表於 2020-5-23 10:09:10 | 顯示全部樓層
感謝大大的辛勞分享!我會繼續在WK關注大大的文章!
累計簽到︰1 天
連續簽到︰1 天
發表於 2020-5-23 23:02:54 | 顯示全部樓層
Thank you for sharing.

回復樓主 親!! 早上好! 心底有WK、心情就會飛翔,心中要個希望、笑容就會清爽!

 分享同時學會感恩,一句感謝的話語,就是最大的支持!  歡迎交流討論
您需要登錄後才可以回帖 登錄 | 立即注册

本版積分規則

c重要聲明:本論壇是以即時上載言論的方式運作,WK論壇對所有言論的真實性、立場及版權等,不負任何法律責任。而一切言論只代表發佈者個人意見,並非本網站之立場,讀者及用戶務必自行判斷內容之真實性。 由於本論壇受到「即時上載言論」運作方式所規限,故不能完全監察所有言論,若讀者及用戶發現有內容出現「真實性、立場及版權」等問題,請聯絡我們:[email protected]論壇有權刪除任何言論(刪除前或不會作事先警告及通知)| SiteMap[網站地圖]

發表新帖 返回頂部