WK綜合論壇, WK综合论坛

查看:2283 回復:51 發表於 2016-1-1 17:33:50
累計簽到︰1941 天
連續簽到︰5 天
發表於 2015-12-30 22:39:35 | 顯示全部樓層 |閱讀模式
VIP精品區,資源無限好賺金任務區,輕松賺金幣
加入VIP,享受高級特權宣傳賺金又升級,超級棒

色即是空2015/空即是色 Sex.Is.Zero, .2015.[MKV / 3.31GB]   [複製鏈接]

影視分享
分類: -
題材:  
地區:  
語言:  
格式:  
年份: -
資源: -

/ i0 d. w& ?, M- o. E; l; h
6 D. X3 H  B& O5 ?" i+ k$ `3 C◎译  名 色即是空2015 /空即是色2015
. A3 o: }  D2 L+ l# M! D◎片  名 공즉시색
' X3 G2 [0 W+ q. W# `2 \( {◎年  代 2015  - G8 R; Y6 N$ [9 }0 K$ h
◎国  家 韩国2 E% `* s% h. S  [, c7 E. B
◎类  别 剧情/爱情
+ h. t! N! a  D7 B% q◎语  言 韩语6 g! N* R" d. O7 C; i5 P- s3 A
◎IMDb评分  N/A& t, C$ R3 c0 W. X7 M5 V
◎IMDB链接 N/A' e- i, j0 O: R9 c
◎文件格式 x264 + AAC$ t! T+ V) Z% S
◎视频尺寸 1280x720" U9 [0 J/ R* w- I% R
◎文件大小 1CD 3.31 GiB
8 n1 q% t; V% M( i5 r! m◎片  长 1h 29mn
  U4 z6 e5 f6 g& V◎导  演 金玄彬
& G, y4 a: @2 `. p& W) l4 t$ d, Y◎主  演 金花媛 4 D  W  ^7 m, {5 C3 G% I3 M& q; X
      智在瑞
( a; G4 F7 {% \  |. E      朴超贤 , J9 E; v9 M) q3 y" J2 [
      尹美丽! l4 Y3 U2 A) a/ T9 A

# [4 Y( ^" i  J* J$ \
# N. @/ j& W8 l, _0 j, A◎简  介. X4 Y( t2 d  @6 ]: ]

! ^1 Q9 r8 |% B3 ?5 H- e  2002년 색즉시공을 뛰어넘는 2015년 풍기문란 캠퍼스 영화 탄생! : m! C+ P$ ?8 Z8 v( ]- N
  섹시 발랄 여대생들의 화끈한 남친 만들기 프로젝트!
: r; w7 _8 z; p; G3 ]# \" R- O7 a  : w& j$ `( c6 o( |: M- e
  청순한 얼굴, 섹시한 바디, 모든 것을 다 갖춘 명문 미대의 미녀 삼총사 ‘호경’, ‘주영’, ‘연희’! 남자를 너무 몰라서, 또 너무 알아서 곤란한 그녀들은 자꾸만 치근덕거리는 시시한 남자들 말고 자신들을 만족시킬 수 있는 진짜 남자를 찾기로 결심한다. 누드모델 출신 식스팩을 자랑하는 조각남, 완벽한 테크닉으로 무장한 연하남, 여자 보기를 황금 같이 하는 돌쇠남까지! 그들을 유혹하기 위한 섹시 발랄 여대생들의 화끈하고 과감한 바디어택. 이제 그녀들의 거침없는 남친 만들기 프로젝트가 시작된다.  P! C- o# K7 g- ?
General
0 E, _! ?: D: P5 `+ K* Q# HComplete name : E:\迅雷下载\____ 2015.720p.HDRip.H264.AAC-ob2
' w, j# w1 e& g; ?' w7 o+ wFormat : AVI
# B7 t- A. y" l) PFormat/Info : Audio Video Interleave- c: p8 G: R# J6 d' c  j% q
File size : 3.31 GiB* A9 t' e" L) T7 W; ~0 [
Duration : 1h 29mn6 _, M3 J( a8 y6 |5 o
Overall bit rate : 5 285 Kbps
: c( \! |0 S8 e) I( r* T5 ?. w7 lWriting application : PotEncoder! [  w7 n+ `' c% @5 ~7 |$ J* `
* V, K/ U& v' n' R& _
Video- t4 L5 R3 S' b
ID : 0
5 T! P5 H1 {, D* F2 i3 WFormat : AVC
, @3 W5 u8 N& R! y$ q% b6 cFormat/Info : Advanced Video Codec3 b+ A" Q3 m$ P$ }7 ?+ D, ^6 t
Format profile : [email protected], }! ], N5 p9 q+ s4 @( ?
Format settings, CABAC : No
) P" ]  W. f4 F* M' GFormat settings, ReFrames : 1 frame6 b) u, X6 C+ \+ X& W' o
Codec ID : H264
! w9 t$ |) x8 D# C) \/ }4 N- ]- I5 yDuration : 1h 29mn
6 Y3 H" j5 ^! m4 tBit rate : 4 875 Kbps
# g0 M9 E8 m1 {" T/ UWidth : 1 280 pixels6 ~6 z$ G& n+ u, t& B
Height : 720 pixels6 i% Z$ N" R5 a/ L& V0 i* G
Display aspect ratio : 16:96 B" g/ d3 D1 c1 s( x
Frame rate mode : Variable
9 K) f( e2 U( R! b; M6 U* iFrame rate : 29.970 fps% Z9 ]/ R; l8 k
Color space : YUV
$ V. c9 c. U5 s& [% w8 fChroma subsampling : 4:2:0
& \; a9 F; p6 D" _0 `# N; IBit depth : 8 bits! }1 K( g% H* @- D
Scan type : Progressive- a( j7 V. f7 t/ M6 n6 z; R+ G
Bits/(Pixel*Frame) : 0.1776 q( G4 c9 x; Y& x( j
Stream size : 3.05 GiB (92%)' v( T) X: w& W0 p/ U0 E+ o

$ Q: z* p1 g# a* ]" HAudio
8 {. W  j; K) q3 p" Z3 rID : 1* Z4 j! M; a. ?- u& r
Format : AC-39 D% `/ `* s7 r
Format/Info : Audio Coding 3' Q" M' F; d: g/ ^  V% \- A
Mode extension : CM (complete main). t  Z/ g- A4 o7 p' m
Format settings, Endianness : Big
* G* {" K# p% A! kCodec ID : 2000
( v. S2 k$ c5 l9 H' d9 {Duration : 1h 29mn5 Y3 p( g1 `9 s1 |" b
Bit rate mode : Constant
  Y" ?9 j* V3 o- w- cBit rate : 192 Kbps
- a- n$ `+ Z4 A* @$ w- ?6 PChannel(s) : 2 channels
. Q- m) \( B9 Y2 c2 _7 o; k( H: Z. e+ [Channel positions : Front: L R) ~8 V0 o* e# S1 ~$ b3 a
Sampling rate : 44.1 KHz2 y" F* T) s$ l# F9 o' H
Bit depth : 16 bits0 ^% f: c5 E2 Z
Compression mode : Lossy
( Z$ @+ o0 A( Z/ f4 d5 W, Z3 z% h) @9 gStream size : 123 MiB (4%)" ~4 b" O" T7 V
Alignment : Aligned on interleaves
" c* }* h1 W; h7 e7 a. C* { 1.jpg
; Z$ V- g5 w0 E
2.jpg   ]3 d. c- T9 K: t
3.jpg
, J* v, j' C2 O/ G 4.jpg
0 `% V! Y: j) z) J. ~" R8 B2 H  J
2 N1 T* u5 K4 f; ^+ `
鄭重聲明:+ V- J" v1 I) K* ^2 x5 [
        本站所有內容皆為各地會員自由上傳,本站隻提供平檯任大傢分享
  ~$ z% t# ]  h* U* X9 b% x# ]# d( l資源。本作品之片源、字幕均來自互聯網,版權歸電影公司所有。任何% _* }1 s, `: X0 g
組織和個人不得公開傳播或用於任何商業盈利用途,否則一切後果由該4 E0 x. x9 A3 T1 z- B- w
組織或個人承擔!本站和製作者不承擔任何法律及連帶責任!請自覺於7 h' Y5 e+ E: Z! Q: u
下載後24小時內刪除。此標題、內容文字、圖片及檔案內容含有不良成
# m7 y  m  P2 H- v1 _! j份未滿十八歲人士請勿觀賞。如果喜歡本片,請購買正版!

# s  h& A' ?& j  U: k【種子下載】
/ |) J! U; o  c9 [  n& x! ~, g- i
遊客,如果您要查看本帖隱藏內容請回復

3 m- ?0 {. P4 Y. C友情提示:
- J* D1 e  S" B1 I    由于論壇更新數據,會有一些主題的種子會無故丟失,請第一時間發
, w' l5 K* |7 j$ a3 F& {“短消息”給我,我會盡快修複種子,謝謝配合!

! L$ f9 s: p. p7 {) i

尚未簽到

發表於 2015-12-30 23:27:49 | 顯示全部樓層
VIP精品區,資源無限好賺金任務區,輕松賺金幣
加入VIP,享受高級特權宣傳賺金又升級,超級棒
的确是不可多得的好片,謝謝大大分享:lol

尚未簽到

發表於 2015-12-30 23:55:03 | 顯示全部樓層
精妙絕倫的精品,感謝啊!期待你更多更好的創作哦!
累計簽到︰5 天
連續簽到︰1 天
發表於 2015-12-31 08:48:56 | 顯示全部樓層
乾恩喔大大
( x9 U5 X% c; ]! }& e1 W  Y  N! b性感韓國美女我喜歡

尚未簽到

發表於 2016-1-1 12:52:28 | 顯示全部樓層
的确是不可多得的好片,谢谢大大分享

尚未簽到

發表於 2016-1-1 14:24:32 | 顯示全部樓層
這個我收藏了!謝謝分享!

尚未簽到

發表於 2016-1-1 16:42:00 | 顯示全部樓層
感谢楼主分享些片,又一韩国力作。希望所有人都能像楼主这样无私奉献。感谢楼主
累計簽到︰11 天
連續簽到︰1 天
發表於 2016-1-1 16:51:50 | 顯示全部樓層
截图很不错,必须下载
累計簽到︰1 天
連續簽到︰1 天
發表於 2016-1-1 17:33:50 | 顯示全部樓層
相信WK因為有你而更加精彩  谢谢

回復樓主 親!! 下午好,中午養足了精神嗎?讓我們一起渡過下午茶時間,WK有您更精彩!

 分享同時學會感恩,一句感謝的話語,就是最大的支持!  歡迎交流討論
您需要登錄後才可以回帖 登錄 | 立即注册

本版積分規則

c重要聲明:本論壇是以即時上載言論的方式運作,WK論壇對所有言論的真實性、立場及版權等,不負任何法律責任。而一切言論只代表發佈者個人意見,並非本網站之立場,讀者及用戶務必自行判斷內容之真實性。 由於本論壇受到「即時上載言論」運作方式所規限,故不能完全監察所有言論,若讀者及用戶發現有內容出現「真實性、立場及版權」等問題,請聯絡我們:[email protected]論壇有權刪除任何言論(刪除前或不會作事先警告及通知)| SiteMap[網站地圖]

發表新帖 返回頂部