WK綜合論壇, WK综合论坛

查看:38 回復:0 發表於 2020-5-22 12:17:45
本主題由 212love 於 2020-5-24 09:22 解除高亮
累計簽到︰1997 天
連續簽到︰1 天
發表於 2020-5-22 12:17:45 | 顯示全部樓層 |閱讀模式
VIP精品區,資源無限好賺金任務區,輕松賺金幣
加入VIP,享受高級特權宣傳賺金又升級,超級棒

真相 The.Truth, 2019.[MKV/14.25GB] [複製鏈接]

影視分享
分類: 電影
題材: 劇情 
地區: 日本 法國 
語言: 英语 法語 
格式: MKV 
年份: 2019
資源: BT资源
8a300c3438b4f.png
# I) {( s" s/ ?* D1 S& I3 S7 ?
  M4 T( S. I/ h◎译  名 真相 / Mother and Daughter / The Truth / The Truth About Catherine / 凯瑟琳的真相 / 母女 / 真实 / 真实芳言(港) / 真実6 \- Q' l, P: P, n
◎片  名 La vérité
0 P; Z7 h, u+ ~3 h6 q◎年  代 2019
/ j3 d/ Z* Z% u; X( a) A: t4 B◎产  地 法国 / 日本
! r$ a: n5 f8 W, _◎类  别 剧情& j1 L+ \0 {4 o& ~( y. A; r
◎语  言 法语 / 英语
8 V( A3 E, H( \  |. i9 a- I◎上映日期 2019-08-28(威尼斯电影节) / 2019-10-11(日本) / 2020-01-22(法国)) \9 _2 L" |) L1 |' ^
◎IMDb评分 6.4/10 from 2405 users
9 Z" p) Q1 B3 o; w$ i◎IMDb链接 https://www.imdb.com/title/tt8323120$ b4 ^' D/ _  |3 r
◎豆瓣评分 7.1/10 from 5266 users/ m$ A1 f0 J$ A0 A
◎豆瓣链接 https://movie.douban.com/subject/30140107/. ~4 m2 M. w1 \8 ~  a7 k) C
◎片  长 106分钟% |- m# c( ~6 l3 r/ z
◎导  演 是枝裕和 Hirokazu Koreeda# O2 R: o% U5 k5 J+ w$ o1 z8 S/ |
◎编  剧 是枝裕和 Hirokazu Koreeda / 刘宇昆 Ken Liu
+ F6 m$ ?- b$ D1 L% K; v7 f◎主  演 凯瑟琳·德纳芙 Catherine Deneuve
& W/ H% T( z5 a3 f      朱丽叶·比诺什 Juliette Binoche  i2 G& Z% ?! Z) G6 B
      伊桑·霍克 Ethan Hawke
- ~: t3 i$ t- I: }      露德温·塞尼耶 Ludivine Sagnier" r2 O: D1 c& A
      阿兰·利博 Alain Libolt9 c0 y% j* t( \7 L  E2 m7 J. w
      罗杰·范·胡尔 Roger Van Hool
. w% [: q6 u0 h7 [! ^- y      洛朗特·卡普洛托 Laurent Capelluto
, {8 W, i7 R- C. I      玛雅·珊萨 Maya Sansa8 j6 U. w7 N# h: i" H6 Q
      杰基·贝约尔 Jackie Berroyer* z: j; J2 e! d  C& z5 @
      赫尔米·德里迪 Helmi Dridi) [/ B& c8 X5 T, l
      Virgile Fouilou
5 o, V, Z8 h  \      Stéphane Ly-Cuong
. ^4 u  z! a7 n3 _! M8 |      亚历珊德拉·耶尔马克 Aleksandra Yermak5 b+ W5 h) S. ?5 O* a
      Sébastien Chassagne
* |1 R- m- q2 f' A( ]) k      Manon Clavel
; c8 Y( A) p, |: w      Clémentine Grenier) g0 W5 g$ O$ ?" V- p& `  t/ c
      Christian Crahay% @; e) X# d/ o; l1 C5 Q. K6 a1 n
- H( l+ n1 [% e, ^2 K
9 j6 ~9 n$ u% {
◎标  签 是枝裕和 | 法国 | 日本 | 2019 | 朱丽叶·比诺什 | 法国电影 | 伊桑霍克 | 剧情
* K( X9 s/ P3 @% \9 \7 i6 z- E
9 A6 T( z: @4 U1 X! w! d◎简  介8 T! h+ r# R3 A! e2 V" ]1 @

8 b5 U$ g4 l- Y6 `/ l7 c  Fabienne是一个女星——是法国影坛巨星。在拥护爱戴她的男人面前她是高高在上的女神。她的女儿因她出版回忆录而带着丈夫和年幼的孩子从纽约回到巴黎。母女二人的重聚很快便变成互相指责:真相将被揭露、算清所有前帐,向对方坦然承认自己的爱和怨恨。$ r" U$ k4 G, Z9 F3 q- u- p

# g# a, p3 T+ |3 h% j◎获奖情况1 I7 w. M- i- _9 a
* m+ J/ D- g; l+ H: r( n
  第76届威尼斯电影节(2019)+ ?  T3 u9 E$ f9 o3 Q; w" I' p
  主竞赛单元 金狮奖 (提名) 是枝裕和) r3 X' k6 ]* ]$ n; D! y

# w  y0 L9 C( U
CODE:
/ }" k5 ~' i7 x' t3 g4 ^+ k9 v+ L; C1 A7 h/ n# I

5 l5 i. F( Z! J/ z2 a& z1 p* K6 t6 ?/ X( t1 @8 _/ E
Video, A$ E& w1 j2 H1 z( u
ID : 1
* f6 R$ q+ D4 p9 ~6 G( n, PFormat : AVC
) c2 k* R' I8 W: D! ]3 aFormat/Info : Advanced Video Codec  c: P. L, Y( m6 J3 F+ {
Format profile : [email protected]
& |' z& f: C0 k' w, m9 XFormat settings : CABAC / 4 Ref Frames
1 m, s# q( Q5 b' v& y8 \. wFormat settings, CABAC : Yes2 \8 c, e, w  g( r& |$ D8 q
Format settings, Reference frames : 4 frames( |& M- A. T' o1 j7 O& ]
Codec ID : V_MPEG4/ISO/AVC
, B7 |0 E4 S2 y9 v! i. HDuration : 1 h 47 min
" a& {3 L9 j" SBit rate : 17.2 Mb/s8 X0 i9 R0 R8 B* F) V  \
Width : 1 920 pixels
, r, l$ {6 x, [Height : 1 038 pixels
) W8 E& s$ q8 uDisplay aspect ratio : 1.85:1
% w" p- s" A: |# ^% XFrame rate mode : Constant# u9 `4 _- W5 N- L* a# ?
Frame rate : 24.000 FPS, A! D2 X" F8 j
Color space : YUV
8 V% @- w! V5 h, [+ kChroma subsampling : 4:2:0
8 A. u! K# i* B% V+ ~; Q& VBit depth : 8 bits
7 k$ T0 U1 k$ u1 u/ z1 {  r; ~3 EScan type : Progressive
: w, r% T; z- u* y  u5 ^, KBits/(Pixel*Frame) : 0.360
5 Q* M% E+ X, P" g3 HStream size : 12.9 GiB (90%)
/ ?5 W- j/ ^8 aWriting library : x264 core 160 r3000 33f9e14
& |  d4 r& K# P, wEncoding settings : cabac=1 / ref=4 / deblock=1:-3:-3 / analyse=0x3:0x133 / me=umh / subme=10 / psy=1 / psy_rd=1.50:0.15 / mixed_ref=1 / me_range=24 / chroma_me=1 / trellis=2 / 8x8dct=1 / cqm=0 / deadzone=21,11 / fast_pskip=0 / chroma_qp_offset=-3 / threads=6 / lookahead_threads=1 / sliced_threads=0 / nr=0 / decimate=0 / interlaced=0 / bluray_compat=0 / constrained_intra=0 / bframes=8 / b_pyramid=2 / b_adapt=2 / b_bias=0 / direct=3 / weightb=1 / open_gop=0 / weightp=2 / keyint=250 / keyint_min=24 / scenecut=40 / intra_refresh=0 / rc=crf / mbtree=0 / crf=20.0 / qcomp=0.60 / qpmin=0 / qpmax=69 / qpstep=4 / ip_ratio=1.40 / pb_ratio=1.30 / aq=3:0.505 m1 ?( f+ F% [( w5 w: k+ U! {# U
Default : Yes6 J9 }( ]+ [7 j' w" a
Forced : No
2 i" c. k4 }3 ?2 K) ]9 @9 BColor range : Limited
) {( r$ j: L4 V1 g5 W5 w; l6 sMatrix coefficients : BT.709* o8 l7 W1 l# R' S

; d- h, u" }3 n" U, dAudio
9 ]  X' _6 J! c- X$ XID : 2
' U# g; w+ a& lFormat : DTS XLL& f/ c6 }3 t9 p" H; w( l. l6 g
Format/Info : Digital Theater Systems
5 V9 m+ D' j- V0 s" v% }% q2 WCommercial name : DTS-HD Master Audio
% j  ]( d' O; j9 l) T9 ECodec ID : A_DTS; h! V) Q" [! Q7 @* D
Duration : 1 h 47 min
- u; |6 a0 P" J; i+ y& CBit rate mode : Variable0 m1 J& C# [* B  A+ E# ~  ?% o
Bit rate : 1 813 kb/s0 _. x2 j) P) _; ^1 j) p
Channel(s) : 6 channels9 b2 R" z+ a4 ]- l+ _; f
Channel layout : C L R Ls Rs LFE
, m2 v, f8 E( h0 y+ iSampling rate : 48.0 kHz' N- j. S' u/ K. l: V/ `
Frame rate : 93.750 FPS (512 SPF)
2 T9 j' @: e7 W- V& D0 Y9 t6 c/ IBit depth : 16 bits2 k; x. t0 G. d$ [( m* J
Compression mode : Lossless! g# V4 W" u3 V
Stream size : 1.36 GiB (10%)
7 {# k3 x# _, m. BLanguage : French
3 D. \$ x" w5 ?Default : Yes; ?/ `; M" ]- F- ^
Forced : No
1 {4 O+ X9 ~( c* h4 O% D. J+ [, @# z4 |& r& {$ H2 v1 z
Text #1
  O7 p" O, J  X* f" k( Q, PID : 3
; Q% w8 U8 T/ QFormat : UTF-8( m. D+ i, B5 E( _8 ^4 N
Codec ID : S_TEXT/UTF8
( A9 R# F& i' g4 ^# iCodec ID/Info : UTF-8 Plain Text7 ]4 P6 f5 t5 n& H, v
Duration : 1 h 41 min
4 b; e, j7 d- }8 y! R! `1 pBit rate : 42 b/s
# v3 q! q5 n3 b9 l7 a! N+ ^% B! oCount of elements : 1208
2 n& Y6 A% Y: G3 v( }Stream size : 31.9 KiB (0%)
& l& @( F1 F& B% ]Title : English (Forced)
2 k' L1 x5 k$ Q! x7 ?9 t5 |Language : English$ s6 W" I$ \. m& A7 [2 R0 q
Default : Yes
: F  q) d6 z/ f) R+ @0 GForced : Yes: j2 f& e: `2 ^: }! ~
. t( _+ \/ g) r6 |. s+ u
Text #2. m. _& t* l% o/ K
ID : 4
$ M% I7 D/ v) {" p, {  I  IFormat : PGS
% @  d$ Y. ^2 ], nMuxing mode : zlib
% s" E. `' J( B" C4 y9 ACodec ID : S_HDMV/PGS4 B1 {! A1 x9 P6 g  F1 }( c0 R
Codec ID/Info : Picture based subtitle format used on BDs/HD-DVDs
' ~) I3 V- u% T# D$ ^; L6 UDuration : 1 h 41 min
/ t3 @/ W+ f/ I% s$ oBit rate : 24.7 kb/s
6 |% i6 g+ P- v8 N- p1 x! p- w2 Y% n8 ICount of elements : 2416
; U# }, \! m# M" z1 Z6 TStream size : 18.0 MiB (0%)6 ^  _& z/ l6 l. r
Language : English* r( n. W3 c4 B- l. m9 ~% ]8 h
Default : No
5 x" [$ j/ ^+ f8 o1 h3 ~+ @) g$ A" v/ LForced : No
. ]' Q9 `, y% J2 g8 r2 G1 t5 E$ y8 B1 ^4 B3 U: O
Menu
: Q4 R" n6 ^/ I* w( M3 J: \4 e00:00:00.000 : en:Chapter 01/ w# U6 O2 L# ~. L* g
00:10:40.500 : en:Chapter 02
8 m7 e! ~  y. @. h/ M( a; z00:19:59.917 : en:Chapter 03
2 i# M% t) V; g, r  f% g( ~( k5 h00:31:06.750 : en:Chapter 04
. |3 |. D. r$ c+ g/ W2 J4 Y00:40:48.750 : en:Chapter 05
# `1 y% h/ \8 t) U00:47:16.750 : en:Chapter 06
2 E) Q, |" A1 f1 J00:59:06.625 : en:Chapter 07
# v7 f9 X- [/ F/ o01:06:54.833 : en:Chapter 08- g0 A6 e1 Z6 K* s) b4 y: s1 n9 o, B
01:14:02.375 : en:Chapter 09. y6 _' C. p2 W# o
01:23:47.083 : en:Chapter 10
3 V9 b2 Q7 D) n+ h$ s  K2 L01:32:24.125 : en:Chapter 11
  {: f- `! ?+ @( h01:42:44.042 : en:Chapter 12
4 _+ z' V- b2 G) c3 t6 M6 X
e3ee972416ca9.png * A" c2 g/ V0 W; V' o
真相. MKV.torrent (71.96 KB, 下載次數: 1)

回復樓主 親!! 下午好,中午養足了精神嗎?讓我們一起渡過下午茶時間,WK有您更精彩!

 分享同時學會感恩,一句感謝的話語,就是最大的支持!  歡迎交流討論
您需要登錄後才可以回帖 登錄 | 立即注册

本版積分規則

c重要聲明:本論壇是以即時上載言論的方式運作,WK論壇對所有言論的真實性、立場及版權等,不負任何法律責任。而一切言論只代表發佈者個人意見,並非本網站之立場,讀者及用戶務必自行判斷內容之真實性。 由於本論壇受到「即時上載言論」運作方式所規限,故不能完全監察所有言論,若讀者及用戶發現有內容出現「真實性、立場及版權」等問題,請聯絡我們:[email protected]論壇有權刪除任何言論(刪除前或不會作事先警告及通知)| SiteMap[網站地圖]

發表新帖 返回頂部